Vaper club

e-cigarete forum
Zadnji put si ovdje bio: 19 kol 2017 20:32. Sada je: 19 kol 2017 20:32.

Vremenska zona: UTC + 01:00 [LJV]




 [ 121 post(ov)a ]  Stranica Prethodna  1 ... 7, 8, 9, 10, 11, 12, 13  Sljedeća
Autor Poruka
 Naslov: Re: Sinkro crtići
PostPostano: 30 sij 2017 22:42 
Offline
Avatar

Pridružen: 04 ožu 2015 14:28
Postovi: 508
Lokacija: ZG
slika

slika



Kod:
https://mega.nz/#!ChFzkZjJ!HPDeZnJgPXvenZpIWzhXKscX6XC11qER9aieJ76Gkfg
https://mega.nz/#!ql9jnLKL!YBrW81PIiC8DSj4RLupw9fcvH1fOowxj5ZfQkdXLg00
https://mega.nz/#!W1UBkITb!JJlQhxSwPnR7sC4ZfHCAE2kU4fqSemIPCBUFfqmtrk8
https://mega.nz/#!HwsRXRoQ!CPsqRWrJYjQzEVLHuS2U0T1qjxeD3DQ6D3s6tbo5Mec
https://mega.nz/#!e8V2iI7Y!uo9ItTWGE_2St0_keTOOfaHwOe1g1ZLfK6Rq2283t2c
https://mega.nz/#!zx8BmCTA!yMWHiItc6BKd3eEfxp1JBuN1_91EjXW-RLnGJiKw-IM

_________________
"The camera is an instrument that teaches people how to see without a camera" - Dorothea Lang
slika


Povratak na vrh
  
 
 Naslov: Re: Sinkro crtići
PostPostano: 05 vel 2017 21:25 
Offline
Avatar

Pridružen: 04 ožu 2015 14:28
Postovi: 508
Lokacija: ZG
slika

slika

Kod:
https://mega.nz/#!39lWFY4A!0OP5Agb37yoFNjdKnQuyWNfp8Q1uWOUQNil6NTkgSPM
https://mega.nz/#!D40AkYjS!BPN1CfvXXDChcw7CXvyknlfNb2ypsGYS0ozbxgaRzeA
https://mega.nz/#!X0FDDZqL!w8PY_P5Lf8DnjlyXBLTTPKYY-VkoaoO8ra-dDbTo5vw
https://mega.nz/#!isEX3DgA!SOaHSk4C7UG0vwhJd-UgiN5QZMwPAlCxqC_urRhKWoI
https://mega.nz/#!D4dSBIYQ!iUMRPPFoVLmUh_jinoF2VSb54wJrGefeCLewVEmU9cY
https://mega.nz/#!uhsnVIrR!DBIf0kkbdbcLPNWCiXCtM2cbVNoY2l9sL8vNS9YZhZQ

_________________
"The camera is an instrument that teaches people how to see without a camera" - Dorothea Lang
slika


Povratak na vrh
  
 
 Naslov: Re: Sinkro crtići
PostPostano: 16 vel 2017 22:45 
Offline
Avatar

Pridružen: 04 ožu 2015 14:28
Postovi: 508
Lokacija: ZG
slika

slika

Kod:
https://mega.nz/#!Cw83kYxD!3UZltYwnfRZw6gcnMG_PoOa3janTS_8bVx6wO4t9cq0





slika

slika

Kod:
https://mega.nz/#!XxNATQhS!OB4wFfbgc8Gu_-Ut9pAEE_MfXmMJjUeL76VBr2P7tpo




slika

slika

Kod:
https://mega.nz/#!ikFVCCQL!kmmHCS3tZhS8vJYi4-t_Zu9mxYPti02rcEUe4qlCsOc

_________________
"The camera is an instrument that teaches people how to see without a camera" - Dorothea Lang
slika


Povratak na vrh
  
 
 Naslov: Re: Sinkro crtići
PostPostano: 26 vel 2017 13:59 
Offline
Avatar

Pridružen: 04 ožu 2015 14:28
Postovi: 508
Lokacija: ZG
slika

slika

Kod:
https://mega.nz/#!z9FWGRwC!yeOFcUi-_tdzRpDeam87X9_lvTgZrjb8XWX4ZSC0-2Y
https://mega.nz/#!CxUQzLqQ!dTdOohmRJmjiHEhLnulDnJAAvNtpfVSBqbVnDW1T8gk
https://mega.nz/#!6o0FTTTA!oc0bb87rq8saG6hpU3S0yKRnMW5Iot6UhqsbfGEAMwA
https://mega.nz/#!alNiTKLT!Lauh3vq-ncTxcW8hO4ws2JSc_EGkW7NCRnAI4FI4Loo
https://mega.nz/#!3w1gSKgT!Kr_5q8LUkyB62rJ9HZjHxmdI3JT3r9oqYl5MUNqlUro

_________________
"The camera is an instrument that teaches people how to see without a camera" - Dorothea Lang
slika


Povratak na vrh
  
 
 Naslov: Re: Sinkro crtići
PostPostano: 07 ožu 2017 20:36 
Offline
Avatar

Pridružen: 04 ožu 2015 14:28
Postovi: 508
Lokacija: ZG
slika

10 DVD-a konvertirano u x264, multi audio (hrvatski, slovenski, srpski)

Epizode:
Strumpfovi S01E01 - Dobar, los, strumpfastican.mkv
Strumpfovi S01E02 - Strumpf sestrica.mkv
Strumpfovi S01E03 - Prozdrljivi klop.mkv
Strumpfovi S01E04 - Tesko je strumpfnuti, ne.mkv
Strumpfovi S02E01 - Strumpfna gripa.mkv
Strumpfovi S02E02 - Strumpfni tartuf.mkv
Strumpfovi S02E03 - Za Gargamelovu ljubav.mkv
Strumpfovi S02E04 - Strumpf od lijenosti.mkv
Strumpfovi S03E01 - Papa strumpf se zeni.mkv
Strumpfovi S03E02 - Strumpfovi na moru.mkv
Strumpfovi S03E03 - Najmanji div.mkv
Strumpfovi S04E01 - Mjehuric strumpfa cuva.mkv
Strumpfovi S04E02 - Nebeski Strumpfovi.mkv
Strumpfovi S04E03 - Prvi Strumpf April.mkv
Strumpfovi S04E04 - Carobni stapic.mkv
Strumpfovi S04E05 - Svaka slika strumpfnu sliku skriva.mkv
Strumpfovi S05E01 - Leteci carobnjak.mkv
Strumpfovi S05E02 - Prvi Strumpfofon.mkv
Strumpfovi S05E03 - Nagrada zlatni strumpf.mkv
Strumpfovi S05E04 - Posljednja Strumpfogodica.mkv
Strumpfovi S06E01 - Da mi je biti Strumpfeta.mkv
Strumpfovi S06E02 - Carobne nausnice.mkv
Strumpfovi S06E03 - Strumpfosuza.mkv
Strumpfovi S06E04 - Kako strumpfnuti dugu.mkv
Strumpfovi S06E05 - Carobni napitak.mkv
Strumpfovi S07E01 - Zaboravni Strumpfovi.mkv
Strumpfovi S07E02 - Poklon za Papu Strumpfa.mkv
Strumpfovi S07E03 - Majstor se zaljubio.mkv
Strumpfovi S07E04 - Strumpfna vremenska kapsula.mkv
Strumpfovi S08E01 - Bebac je nestao.mkv
Strumpfovi S08E02 - Dobra vjestica.mkv
Strumpfovi S08E03 - Prvi Bozic malog Strumpfa.mkv
Strumpfovi S08E04 - Zagrljaj Mrguda.mkv
Strumpfovi S08E05 - Svadbena zvona za Gargamela.mkv
Strumpfovi S09E01 - Carobna zvecka.mkv
Strumpfovi S09E02 - Jednom Strumpf, zauvijek Strumpf.mkv
Strumpfovi S09E03 - Cvjetne vile.mkv
Strumpfovi S09E04 - Nikad ne reci nikad.mkv
Strumpfovi S10E01 - Skoci kasljostrumpf.mkv
Strumpfovi S10E02 - Strumpfetini zlatni uvojci.mkv
Strumpfovi S10E03 - Noc strumpfo vjestica.mkv
Strumpfovi S10E04 - Zastrumpfani Strumpfovi.mkv

General
Complete name : \Strumpfovi.S01-S10.DVDrip.multiaudio(hr.si.sr)x264.mp3 - MPIX\Strumpfovi S01E01 - Dobar, los, strumpfastican.mkv
Format : Matroska
Format version : Version 4 / Version 2
File size : 225 MiB
Duration : 22mn 45s
Overall bit rate : 1 383 Kbps
Encoded date : UTC 2017-03-03 17:38:18
Writing application : mkvmerge v9.0.1 ('Obstacles') 64bit
Writing library : libebml v1.3.3 + libmatroska v1.4.4

Video
ID : 1
Format : AVC
Format/Info : Advanced Video Codec
Format profile : Main@L4.2
Format settings, CABAC : Yes
Format settings, ReFrames : 1 frame
Codec ID : V_MPEG4/ISO/AVC
Duration : 22mn 45s
Bit rate : 998 Kbps
Width : 768 pixels
Height : 576 pixels
Display aspect ratio : 4:3
Frame rate mode : Constant
Frame rate : 25.000 fps
Color space : YUV
Chroma subsampling : 4:2:0
Bit depth : 8 bits
Scan type : Progressive
Bits/(Pixel*Frame) : 0.090
Stream size : 162 MiB (72%)
Default : Yes
Forced : No

Audio #1
ID : 2
Format : MPEG Audio
Format version : Version 1
Format profile : Layer 3
Codec ID : A_MPEG/L3
Codec ID/Hint : MP3
Duration : 22mn 45s
Bit rate mode : Constant
Bit rate : 128 Kbps
Channel(s) : 2 channels
Sampling rate : 44.1 KHz
Frame rate : 38.281 fps (1152 spf)
Compression mode : Lossy
Stream size : 20.8 MiB (9%)
Writing library : LAMELAME_MAJOR_VERSI
Language : Croatian
Default : Yes
Forced : No

Audio #2
ID : 3
Format : MPEG Audio
Format version : Version 1
Format profile : Layer 3
Codec ID : A_MPEG/L3
Codec ID/Hint : MP3
Duration : 22mn 45s
Bit rate mode : Constant
Bit rate : 128 Kbps
Channel(s) : 2 channels
Sampling rate : 44.1 KHz
Frame rate : 38.281 fps (1152 spf)
Compression mode : Lossy
Stream size : 20.8 MiB (9%)
Writing library : LAMELAME_MAJOR_VERSI
Language : Slovenian
Default : No
Forced : No

Audio #3
ID : 4
Format : MPEG Audio
Format version : Version 1
Format profile : Layer 3
Codec ID : A_MPEG/L3
Codec ID/Hint : MP3
Duration : 22mn 45s
Bit rate mode : Constant
Bit rate : 128 Kbps
Channel(s) : 2 channels
Sampling rate : 44.1 KHz
Frame rate : 38.281 fps (1152 spf)
Compression mode : Lossy
Stream size : 20.8 MiB (9%)
Writing library : LAMELAME_MAJOR_VERSI
Language : Serbian
Default : No
Forced : No



10x 700Mb

Kod:
https://mega.nz/#!cVRGTa5J!0yVjJEaf86U7bz3d0zBFrTqVVPROoy1gT3FSV9rpS1Y
https://mega.nz/#!RZYQHTxB!khl1Glcb8s7bkRF-8Q7rNOxzT_BHSra6F26xlX4rKpA
https://mega.nz/#!oBg0mRDL!V8HvuXrclq6So_PyGPL-ayN3aHi-skDL5r3jnWdzVKc
https://mega.nz/#!xZ5iQAbQ!iTB5o-iT799sVSA9t7VeMrjoIRSHqe-LsSUWTkaNwjg
https://mega.nz/#!oEpwQB6Y!87HV6zgke4aFUQL4PXQHmpCsQ6w5GJ1Dl5KaO6_o-nk
https://mega.nz/#!tMJyjL5Q!1Gt2Uq10M087Tcq4P7wnwNwlIpAku4E6reCjuTthRI4
https://mega.nz/#!NEhg3KKS!EYJ2FPqtrbdCVceUPpN-Tqr_1NM5dZH72ivCRUorLGc
https://mega.nz/#!gZRkjSAB!zpTu0alHVyZ8kT5NLORAdz_g_gnXStxwZaWR7ahcWfg
https://mega.nz/#!sdQQkajZ!mdocHtXuXx8gkcZha8sPUD8V0TMDfU3O0OB8Tdojge8
https://mega.nz/#!EQpWTZ6b!Oxy0FpnKJ_kxNZk_RMXYrgI1yiXJ3LbhSKNnYeMhAJY

_________________
"The camera is an instrument that teaches people how to see without a camera" - Dorothea Lang
slika


Povratak na vrh
  
 
 Naslov:
PostPostano: 07 ožu 2017 21:10 
Offline
Moderator
Avatar

Pridružen: 27 pro 2013 19:47
Postovi: 3328
Lokacija: Zagreb, Botinec
jebeno!! hvala! :hug:

Sent from my F5 using Tapatalk

_________________
http://journey-liquids.com
mod: VT200,VTC mini, Elitar,Mini volt,Paps v4, SMPL v2, Vapor Giant, Nemesis, Dimitri,IPV5
Atty: Fogger v2, Kayfun lite v2+, Nextiny, YEP v2, Origen little,FEV v2, Taifun GT,GS i GLS, Fogger mini,
Aromamizer, Ithaka,Oddy, Kayfun mini v2.1,UTA II, Vapor Giant


Povratak na vrh
  
 
 Naslov: Re: Sinkro crtići
PostPostano: 11 ožu 2017 18:04 
Offline
Avatar

Pridružen: 04 ožu 2015 14:28
Postovi: 508
Lokacija: ZG
Moana (2016) HRSink 1080p BRRip x264 Cam Audio - BD4YU

slika

Video
Format : AVC
Duration : 1h 47mn
Bit rate : 2 508 Kbps
Width : 1 920 pixels
Height : 808 pixels
Display aspect ratio : 2.40:1
Frame rate mode : Constant
Frame rate : 23.976 fps


Audio
Format : MPEG Audio
Codec ID/Hint : MP3
Duration : 1h 47mn
Bit rate mode : Constant
Bit rate : 128 Kbps
Channel(s) : 2 channels
Sampling rate : 48.0 KHz

Kod:
https://mega.nz/#!go1FWQwZ!ZZSCl97Yiq1F0PM4jZnoA90ttrj4FXfgJvtB1Urhhrk

_________________
"The camera is an instrument that teaches people how to see without a camera" - Dorothea Lang
slika


Povratak na vrh
  
 
 Naslov: Re: Sinkro crtići
PostPostano: 22 ožu 2017 21:13 
Offline
Avatar

Pridružen: 04 ožu 2015 14:28
Postovi: 508
Lokacija: ZG
slika

Epic.2013.HRSink.720p.BluRay.x264.AC3-RAKiJA

zanr..............: animirani
datum enkodanja...: 9.8.2013.
video.............: x264@~3066 Kbps
audio.............: AC3@448 Kbps
reza..............: 1280x536@23,976fps
trajanje..........: ~102mn
format............: mkv
jezik.............: hrvatski

Kod:
https://mega.nz/#!otFHTbCT!AeCVo1RGal8biMFR2Ohbg4KSwqq4h7q_eFEI0nJVJvY

_________________
"The camera is an instrument that teaches people how to see without a camera" - Dorothea Lang
slika


Povratak na vrh
  
 
 Naslov: Re: Sinkro crtići
PostPostano: 24 ožu 2017 00:58 
Offline
Avatar

Pridružen: 04 ožu 2015 14:28
Postovi: 508
Lokacija: ZG
Animal.Kingdom.Lets.go.Ape.HRSINK.2015.720p.BluRay.x264-LOST

slika

slika

slika

slika

General
Complete name : Animal.Kingdom.Lets.go.Ape.2015.720p.BluRay.x264-LOST.mkv
Format : Matroska
File size : 3.27 GiB
Duration : 1 h 40 min
Overall bit rate : 4 653 kb/s

Video
Format : AVC
Bit rate : 4 016 kb/s
Width : 1 280 pixels
Height : 688 pixels
Frame rate : 23.976 (24000/1001) FPS
Stream size : 2.82 GiB (86%)

Audio
Format : AC-3
Bit rate : 640 kb/s
Channel(s) : 6 channels
Stream size : 461 MiB (14%)



Kod:
https://mega.nz/#!FNkF0aob!60LsHqRdO3MYQYYYSCbh4-iJccXl3U5mx_NfFQSakmg

_________________
"The camera is an instrument that teaches people how to see without a camera" - Dorothea Lang
slika


Povratak na vrh
  
 
 Naslov: Re: Sinkro crtići
PostPostano: 20 tra 2017 17:25 
Offline
Avatar

Pridružen: 04 ožu 2015 14:28
Postovi: 508
Lokacija: ZG
HrSink.

slika

Sezona 1.
5.2Gb

Kod:
https://mega.nz/#!AKwnRCQL!PgYDXeK3qmO7MwHMgvGFDZGhXv1FYbuLgcIzXm2iP0o
https://mega.nz/#!IO42AIQB!3-5xA7to8MkETA66L9ibev9A19cd6Ea4LnDN_No9gn8
https://mega.nz/#!MShzAaBJ!P9yuu8B2Ik6eipoQ1Qe7xAj7aonhTqc9FquJLffMJWE
https://mega.nz/#!lfYUARKI!tbs6t_WPHC7RgTdsbgtTJwoLTAv9ufbY2vtmZ6mqFPg
https://mega.nz/#!VKgljbLL!2JdR9zjqCLtYiN-LMEpYCt0SIRhkUi7gJkP_mkX8J-0
https://mega.nz/#!MLQy3RoQ!Zn65X-EKOLvU3UNu6IrzsqGg-Lm8ptOyHaHcEOWIhJ8
https://mega.nz/#!RWZlQYzL!a0TIgBGTWtgleEzSZKaOZEFtfd7_l30T8Jj3n6yput0
https://mega.nz/#!JWR3UACQ!HNCymC2vjnKwxzcW1iLYBb8LUiBkTmt_hTDUJLYXOns


Sezona 2
8.7Gb

Kod:
https://mega.nz/#!wWZ2CRzA!FBBq0mZDpyI9mKw2SytgxDBmDoeOgA81gKU9syPGvGY
https://mega.nz/#!cHJRyLjJ!tj3loVaoSlwWZ3NHRvViSzl17K7Q_xieN0iWbgveJ8o
https://mega.nz/#!xKB2nJBC!8BfIvY6bv1J_0lFVp0yJDF8FZYvnEhVYFoHHvPtQ5HY
https://mega.nz/#!5b4AQThS!hgo4iO5ROaTRkAdq_O53xKeLKEbwZOr_ZENZBkDaU_g
https://mega.nz/#!BOolWAAZ!EEfEJumGWWfZWxm2ih6nG_fxNMjRJRwVg5kx73zER9U
https://mega.nz/#!gHoiRLbQ!NsTTxmuZDhyQjiyOdMpWFG1OJMPB-hCxtTe9ldKYOxg
https://mega.nz/#!kHAzgSiT!Lgs_HlElhsCJ6IVXhJXai0KNELUeH9vR_h6NlYE-acQ
https://mega.nz/#!sPRG0QwB!ioMic7-Gws9wgtWKznCjb7dcCMOaEHAe8Q8vt-AZb3U
https://mega.nz/#!xGQHAAbL!qq2VB8oDPA3hT9qry9GapDMwMTOMkWjSVXytEAfGLLI
https://mega.nz/#!Ef4AlCST!qLnjh2Hl2CW5KjY-SBeQo8Y7cGDlMV4LJPQgAE1EUNs
https://mega.nz/#!pK5SnQoY!afrVFYjrYuc-qd2PR-9k7EpHcF7KHwbfjJ2XIvt0gvU
https://mega.nz/#!ZWgiyaYI!hn8hJXPPsMbdiqOyXL1t0edIiy1JTOSOT8gTPYIwcUo
https://mega.nz/#!dGB2kAJA!e3lwzVGb8v9qVtyj8LrH4j2ddWlBSL20MojDu2jnrLU

_________________
"The camera is an instrument that teaches people how to see without a camera" - Dorothea Lang
slika


Povratak na vrh
  
 
 [ 121 post(ov)a ]  Stranica Prethodna  1 ... 7, 8, 9, 10, 11, 12, 13  Sljedeća

Vremenska zona: UTC + 01:00 [LJV]


Online

Trenutno korisnika: crawl, damba i 0 gostiju.


Ne možeš započinjati nove teme.
Ne možeš odgovarati na postove.
Ne možeš uređivati svoje postove.
Ne možeš izbrisati svoje postove.
Ne možeš postati privitke.

Idi na:  
Powered by phpBB © 2000, 2002, 2005, 2007 phpBB Group
HR (CRO) by vaper club