Vaper club

e-cigarete forum
Zadnji put si ovdje bio: 20 lis 2017 16:28. Sada je: 20 lis 2017 16:28.

Vremenska zona: UTC + 01:00 [LJV]




 [ 139 post(ov)a ]  Stranica Prethodna  1 ... 6, 7, 8, 9, 10, 11, 12 ... 14  Sljedeća
Autor Poruka
 Naslov: Re: Sinkro crtići
PostPostano: 12 stu 2016 17:41 
Offline
Avatar

Pridružen: 04 ožu 2015 14:28
Postovi: 522
Lokacija: ZG
slika

http://www.imdb.com/title/tt3411432/

General
Complete name : \Ups!.Noa.je.otisao.2015.1080p.HRsink.BluRay.H264.AC3-n3o\Ups!.Noa.je.otisao.2015.1080p.HRsink.BluRay.H264.AC3-n3o.mkv
Format : Matroska
Format version : Version 4 / Version 2
File size : 2.05 GiB
Duration : 1h 26mn
Overall bit rate : 3 393 Kbps

Video
ID : 1
Format : AVC
Format/Info : Advanced Video Codec
Format profile : High@L4
Format settings, CABAC : Yes
Format settings, ReFrames : 4 frames
Codec ID : V_MPEG4/ISO/AVC
Duration : 1h 26mn
Bit rate : 3 008 Kbps
Width : 1 920 pixels
Height : 1 036 pixels
Display aspect ratio : 1.85:1
Frame rate mode : Constant
Frame rate : 23.976 (24000/1001) fps
Color space : YUV
Chroma subsampling : 4:2:0
Bit depth : 8 bits
Scan type : Progressive
Bits/(Pixel*Frame) : 0.063
Stream size : 1.82 GiB (89%)

Audio
ID : 2
Format : AC-3
Format/Info : Audio Coding 3
Mode extension : CM (complete main)
Format settings, Endianness : Big
Codec ID : A_AC3
Duration : 1h 26mn
Bit rate mode : Constant
Bit rate : 384 Kbps
Channel(s) : 6 channels
Channel positions : Front: L C R, Side: L R, LFE
Sampling rate : 48.0 KHz
Frame rate : 31.250 fps (1536 spf)
Compression mode : Lossy
Delay relative to video : -250ms
Stream size : 237 MiB (11%)
Language : Croatian
Default : Yes
Forced : No

Kod:
https://mega.nz/#!MMMF2IxD!zmvS3oeANgzCL6I5BXlDVdIFN4JZGiNWoXDgqWaHkgk

_________________
"The camera is an instrument that teaches people how to see without a camera" - Dorothea Lang
slika


Povratak na vrh
  
 
 Naslov: Re: Sinkro crtići
PostPostano: 12 stu 2016 19:35 
Offline
Avatar

Pridružen: 04 ožu 2015 14:28
Postovi: 522
Lokacija: ZG
slika

General
Complete name : Ice.Age.Collision.Course.2016.1080p.BluRay.x264.HRsink-YTS-DRONES.mkv
Format : Matroska
Format version : Version 4 / Version 2
File size : 2.64 GiB
Duration : 1h 34mn
Overall bit rate : 4 001 Kbps
Encoded date : UTC 2016-11-12 13:41:57

Video
ID : 1
Format : AVC
Format/Info : Advanced Video Codec
Format profile : High@L4.1
Format settings, CABAC : Yes
Format settings, ReFrames : 4 frames
Codec ID : V_MPEG4/ISO/AVC
Duration : 1h 34mn
Bit rate : 2 050 Kbps
Width : 1 920 pixels
Height : 800 pixels
Display aspect ratio : 2.40:1
Frame rate mode : Constant
Frame rate : 23.976 fps
Default : Yes
Forced : No

Audio #1
ID : 2
Format : MPEG Audio
Format version : Version 1
Format profile : Layer 3
Codec ID : A_MPEG/L3
Codec ID/Hint : MP3
Bit rate mode : Constant
Bit rate : 320 Kbps
Channel(s) : 2 channels
Sampling rate : 44.1 KHz
Language : Croatian
Default : Yes
Forced : Yes

Audio #2
ID : 3
Format : DTS
Format/Info : Digital Theater Systems
Mode : 16
Format settings, Endianness : Big
Codec ID : A_DTS
Duration : 1h 34mn
Bit rate mode : Constant
Bit rate : 1 509 Kbps
Channel(s) : 6 channels
Channel positions : Front: L C R, Side: L R, LFE
Sampling rate : 48.0 KHz
Language : Croatian
Default : No
Forced : No

Audio #3
ID : 4
Format : AAC
Format/Info : Advanced Audio Codec
Format profile : LC
Codec ID : A_AAC
Duration : 1h 34mn
Bit rate : 120 Kbps
Channel(s) : 2 channels
Channel positions : Front: L R
Sampling rate : 48.0 KHz
Language : English
Default : No
Forced : No

Kod:
https://mega.nz/#!kJ82VSSC!TGEpqXB7NRozKw9nQjoYNSb3zmIIANwGE23_vQ7VfZg

_________________
"The camera is an instrument that teaches people how to see without a camera" - Dorothea Lang
slika


Povratak na vrh
  
 
 Naslov: Re: Sinkro crtići
PostPostano: 03 pro 2016 14:43 
Offline

Pridružen: 24 stu 2015 12:38
Postovi: 6
Lokacija: Zabreg
Poštovani mpix,

Još jednom veeeeeeeliko hvala za ovaj topic i crtiće.

Možda nisi svjestan, ali ovo je zlatni rudnik za nas i našu djecu.

Vječni respekt :klanja:


Povratak na vrh
  
 
 Naslov: Re: Sinkro crtići
PostPostano: 03 pro 2016 18:05 
Offline
Avatar

Pridružen: 04 ožu 2015 14:28
Postovi: 522
Lokacija: ZG
slika

Potraga.za.Dorom.2016.HRsink.1080p.BRRip.x264.AC3-BD4YU-ParnY

3.5Gb

Kod:
https://mega.nz/#!EIMW1bAS!yPPhiH6K_9KClef6KWvfaeo7jV3hdiJw0tzeN17yVVw

_________________
"The camera is an instrument that teaches people how to see without a camera" - Dorothea Lang
slika


Povratak na vrh
  
 
 Naslov: Re: Sinkro crtići
PostPostano: 22 pro 2016 21:29 
Offline
Avatar

Pridružen: 04 ožu 2015 14:28
Postovi: 522
Lokacija: ZG
IZVORNO IME: The Big Friendly Giant
REDATELJ: Steven Spielberg | ŽANR: Avantura, fantazija
ULOGE: Duško Valentić, Gita Hajdarhodžić, Janko Popović Volarić, Duško Gojić, Urša Raukar, Ivana Krizmanić, Ivan Đuričić
TRAJANJE FILMA: 115 minuta | GODINA: 2016 | DRŽAVA: SAD


SADRŽAJ FILMA:

BFG je uzbudljiva priča o desetogodišnjoj djevojčici Sophie iz Londona i misterioznom divu koji je upoznaje sa čudnovatim i opasnim svijetom divova. Film je temeljen na knjizi „BFG”, slavnog Roalda Dahla, koja je objavljena 1982. godine i od tada oduševljava čitatelje svih uzrasta. Knjiga, za koju je ilustracije napravio Quentin Blake, prethodno je adaptirana kao animirani film za britansku televiziju 1989. godine. Nova adaptacija ujedinila je ponovno Spielberga i scenaristicu neponovljivog E.T.-a, Melissu Mathison. U ulozi djevojčice, Sophie ćemo gledati Ruby Barnhill, a ulogu dobroćudnog diva dobio je Mark Rylance. Ostale uloge tumače Rebecca Hall, Bill Hader, Jemaine Clement i Penelope Wilton.

slika
slika

Kod:
http://www.imdb.com/title/tt3691740/


Kod:
https://mega.nz/#!ZJUl3A6L!UFH7jNLMGjIhqKi4ExPSlHtj_BprosnvHs9QJisJX20

_________________
"The camera is an instrument that teaches people how to see without a camera" - Dorothea Lang
slika


Povratak na vrh
  
 
 Naslov: Re: Sinkro crtići
PostPostano: 26 pro 2016 18:53 
Offline
Avatar

Pridružen: 04 ožu 2015 14:28
Postovi: 522
Lokacija: ZG
slika


Svaki oko 700Mb:

Asterix Gal
640x480, XviD, MP3
Kod:
https://mega.nz/#!pdsT2JIB!5-Kyi4KV4oWvza_o8K-57tN4b2wypNyiJjOx8SyDfq0


Asterix i 12 zadataka
544x432, XviD, MP3
Kod:
https://mega.nz/#!BIdS1JjA!gcw96XCQ9fLe660sUJEFSXDfqM4Vn4Ck5xm0EUKk5ug


Asterix i Kleopatra
400x304, XviD, MP3
Kod:
https://mega.nz/#!lFcXTLqa!uHpysFJZloZK2lNzagOEEF6Yyxw0hw0KgGMKXm2QNF4


Asterix i velika bitka
464x352, XviD, MP3
Kod:
https://mega.nz/#!1YEhSD4Q!1iJYQodgohwZlxyG31qv38nwRbxhnasklL8E8qD5hYY


Asterix i vikingzi
608x336, XviD, MP3
Kod:
https://mega.nz/#!dNMmFaLb!5tYjDHkP-bCGsRG3dsAyISZzu6OnjDxdxWsjKYJNu6o


Asterix otkriva Ameriku
352x288, XviD, MP3
Kod:
https://mega.nz/#!JZFyTRqC!sfP7l9i3uUDGrY0jH20fYlmqYge_JsFXYX8C0CRr03o


Asterix protiv Cezara
640x480, XviD, MP3
Kod:
https://mega.nz/#!MINTDTJI!dV5aimbEpaqfvi-NFOIMmcl_yDFnGgpaM6Z5eIzZqHE


Asterix u Britaniji
640x480, XviD, MP3
Kod:
https://mega.nz/#!ZV8mmTDL!oTT6VhY9gl5d2NK3KA1jsPYvFhZtHb8ETRioCXTZMBc




slika


General
Complete name : The.Croods.2013.720p.BluRay.x264-SPARKS.mkv
Format : Matroska
Format version : Version 4 / Version 2
File size : 3.27 GiB
Duration : 1h 38mn
Overall bit rate : 4 754 Kbps


Video
ID : 1
Format : AVC
Format/Info : Advanced Video Codec
Duration : 1h 38mn
Bit rate : 3 244 Kbps
Width : 1 280 pixels
Height : 544 pixels


Audio
ID : 2
Format : DTS
Format/Info : Digital Theater Systems
Duration : 1h 38mn
Bit rate mode : Constant
Bit rate : 1 509 Kbps
Channel(s) : 6 channels
Channel positions : Front: L C R, Side: L R, LFE
Sampling rate : 48.0 KHz

Kod:
https://mega.nz/#!k4kSESzI!q2f-4pc7DtflmB5z_WHHl1p9d3A0rTeGXAJ-08JJXI0



slika

General
Complete name : \Bozic.Spuzve.Boba.2012.HRSink.720p.HDRip-BD4YU .mkv
Format : Matroska
Format version : Version 4 / Version 2
File size : 262 MiB
Duration : 21mn 58s
Overall bit rate : 1 664 Kbps

Video
ID : 1
Format : AVC
Format/Info : Advanced Video Codec
Format profile : Main@L4
Codec ID : V_MPEG4/ISO/AVC
Duration : 21mn 58s
Nominal bit rate : 1 500 Kbps
Width : 1 280 pixels
Height : 720 pixels
Display aspect ratio : 16:9
Frame rate mode : Constant
Frame rate : 50.000 fps
Color space : YUV
Chroma subsampling : 4:2:0
Bit depth : 8 bits

Audio
ID : 2
Format : AAC
Format/Info : Advanced Audio Codec
Format profile : LC
Codec ID : A_AAC
Duration : 21mn 58s
Channel(s) : 2 channels
Channel positions : Front: L R
Sampling rate : 48.0 KHz
Frame rate : 46.875 fps (1024 spf)
Compression mode : Lossy
Delay relative to video : -21ms
Title : Stereo
Language : Croatian
Default : Yes
Forced : No

Text
ID : 3
Format : UTF-8
Codec ID : S_TEXT/UTF8
Codec ID/Info : UTF-8 Plain Text
Default : Yes
Forced : No

Kod:
https://mega.nz/#!18NVUKpZ!MIgWMUIYmafZZASkBMvhKdrpyCkFOT1ZPosiwAZEVsU

_________________
"The camera is an instrument that teaches people how to see without a camera" - Dorothea Lang
slika


Povratak na vrh
  
 
 Naslov: Re: Sinkro crtići
PostPostano: 03 sij 2017 22:57 
Offline
Avatar

Pridružen: 04 ožu 2015 14:28
Postovi: 522
Lokacija: ZG
slika

Epizode su u rasponu 180 do 280Mb i jedna je 550Mb
Ima 21 epizoda, ali dvije fale.

Dora.and.Friends.Into.The.City.S01E01.HRsink.HDTV.XviD-RAKiJA
Kod:
https://mega.nz/#!ONAWkDBZ!EvaQRTlbDmK0F1m3YE9yoDQbYUWn3ksrtYQi_tLgUx4


Dora.and.Friends.Into.The.City.S01E02.HRsink.HDTV.XviD-RAKiJA
Kod:
https://mega.nz/#!nV4DTb6D!NKw0SaB10kf6DcNGM6bKjSXdGlwxqOIwN8IBgn8UGcw


Dora.and.Friends.Into.The.City.S01E03.HRsink.WEB-DL.XviD-RAKiJA
Kod:
https://mega.nz/#!bMgQ0QzR!dYUSVJQNZ3S2CUQrz46XTP_9Au7Ta8frTh8FZ8sxqb0


Dora.and.Friends.Into.The.City.S01E04.HRsink.PDTV.XviD-RAKiJA
Kod:
https://mega.nz/#!eMwzgbQI!u6s24Hoqs8aAtM8Fajn7E5hr4_yguQc0xpMCt58HieU


Dora.and.Friends.Into.The.City.S01E05.HRsink.WEB-DL.XviD-RAKiJA
Kod:
https://mega.nz/#!2ZIgyBrJ!wpe_o-6fbpXp-yDoptdEvyP19YqM9RaKQMHSjK0jRHQ


Dora.and.Friends.Into.The.City.S01E06.HRsink.WEB-DL.XviD-RAKiJA
Kod:
https://mega.nz/#!DE4T2R4I!tVbY9o_9e2eVMlA6N7YWAslWXWF-9SAd_iwbfQnsyLA


Dora.and.Friends.Into.The.City.S01E07.HRsink.WEB-DL.XviD-RAKiJA
Kod:
https://mega.nz/#!WdwWDQDR!y5KBD77wD1EMj5JIwLOLd9mINPU9jv0M6I7k8udPfmI


Dora.and.Friends.Into.The.City.S01E08.HRsink.HDTV.XviD-RAKiJA
Kod:
https://mega.nz/#!aAR3nAgL!nVhITs6DuzGEEtual_mQCXO2Ju2QQfE5EDbcLhNZ_CQ


Dora.and.Friends.Into.The.City.S01E09.HRsink.PDTV.XviD-RAKiJA
Kod:
https://mega.nz/#!WIYTTZ6B!86NkQ4XXj2uLN_3IDAd_slPeO6uHOnJq0Zt22hxoVKs


Dora.and.Friends.Into.The.City.S01E10.HRsink.HDTV.XviD-RAKiJA
Kod:
https://mega.nz/#!qdwBAJYK!HobQBjaiQbBNgjzCtr0k_yreZahFbeTc3bGrEY7g00U


Dora.and.Friends.Into.The.City.S01E11.HRsink.PDTV.XviD-RAKiJA
Kod:
https://mega.nz/#!7JIlDKDb!45VqpG1kURCzDPgtNFLJ3bhxnVqrmaH-OUhdFNb8jcY


Dora.and.Friends.Into.The.City.S01E12.HRsink.PDTV.XviD-RAKiJA
Kod:
https://mega.nz/#!qdZXAIKT!3jXT4bNnzAqzWpBe8MwYxQhHqI-68Vv3WbiHF5iduW0


Dora.and.Friends.Into.The.City.S01E13.E14.HRsink.PDTV.XviD-RAKiJA
Kod:
https://mega.nz/#!vM5hGZ4Y!Pc81gZotDzkyXyV1CyK1OznRmBOgmGpwiE1nf4QaAYM


Dora.and.Friends.Into.The.City.S01E15.HRsink.PDTV.XviD-RAKiJA
Kod:
https://mega.nz/#!2MJV0QKQ!odRBZQBeLeb4EaqvGSsBxgh4-1pwbYP8tPSfIuo2E0o


Dora.and.Friends.Into.The.City.S01E16.HRsink.PDTV.XviD-RAKiJA
Kod:
https://mega.nz/#!SdBRBRRb!OZp5uHuUJpb62DFWT-r8RLmTljWsfRwC3qtgda0XSDs


Dora.and.Friends.Into.The.City.S01E19.HRsink.HDTV.XviD-RAKiJA
Kod:
https://mega.nz/#!rZ5ilQ7A!HXahc4dZqyTmprkdTOzrkLLHO-Y1ByWbOcn1rlIAuhs


Dora.and.Friends.Into.The.City.S01E20.HRsink.HDTV.XviD-RAKiJA
Kod:
https://mega.nz/#!zFRERb5S!aPVVX-an4AKb0sgEaqfDwo4tMheUCj4jYbxLvaWZIwY


Dora.and.Friends.Into.The.City.S01E21.HRsink.PDTV.XviD-RAKiJA
Kod:
https://mega.nz/#!7Bp1UQTC!z1lEd0LK1tHhgsNdAHnplMUvofUCzdBf9B3w6gglhZU

_________________
"The camera is an instrument that teaches people how to see without a camera" - Dorothea Lang
slika


Povratak na vrh
  
 
 Naslov: Re: Sinkro crtići
PostPostano: 08 sij 2017 17:55 
Offline
Avatar

Pridružen: 04 ožu 2015 14:28
Postovi: 522
Lokacija: ZG
slika

Rode.2016.HRSink.720p.BRRip.DD5.1-BD4YU

Kod:
https://mega.nz/#!XAglAJZA!wqbIva9_gucBwwZ6Zj6xybh5wU1ruC4OaB-DmwnIN8w

_________________
"The camera is an instrument that teaches people how to see without a camera" - Dorothea Lang
slika


Povratak na vrh
  
 
 Naslov: Re: Sinkro crtići
PostPostano: 13 sij 2017 19:44 
Offline
Avatar

Pridružen: 04 ožu 2015 14:28
Postovi: 522
Lokacija: ZG
slika



General
Complete name : \Carobnjakov_sesir_DVDrip_x264_MpiX.mp4
Format : MPEG-4
Format profile : Base Media / Version 2
Codec ID : mp42 (mp42/isom)
File size : 736 MiB
Duration : 1h 15mn
Overall bit rate : 1 360 Kbps

Video
ID : 1
Format : AVC
Format/Info : Advanced Video Codec
Format profile : Main@L1.3
Format settings, CABAC : Yes
Format settings, ReFrames : 1 frame
Codec ID : avc1
Codec ID/Info : Advanced Video Coding
Duration : 1h 15mn
Bit rate : 1 192 Kbps
Width : 768 pixels
Height : 576 pixels
Display aspect ratio : 4:3
Frame rate mode : Constant
Frame rate : 25.000 fps
Color space : YUV
Chroma subsampling : 4:2:0
Bit depth : 8 bits
Scan type : Progressive
Bits/(Pixel*Frame) : 0.108
Stream size : 645 MiB (88%)

Audio
ID : 2
Format : AAC
Format/Info : Advanced Audio Codec
Format profile : LC
Codec ID : 40
Duration : 1h 15mn
Bit rate mode : Constant
Bit rate : 163 Kbps
Nominal bit rate : 256 Kbps
Channel(s) : 2 channels
Channel positions : Front: L R
Sampling rate : 48.0 KHz
Frame rate : 46.875 fps (1024 spf)
Compression mode : Lossy
Stream size : 88.4 MiB (12%)
Language : Croatian



Kod:
https://mega.nz/#!SN4yHQQJ!hgLp1FHrY98DYVQzhVMPrtisVgviV9t92uhllSKNbBA

_________________
"The camera is an instrument that teaches people how to see without a camera" - Dorothea Lang
slika


Povratak na vrh
  
 
 Naslov: Re: Sinkro crtići
PostPostano: 27 sij 2017 21:43 
Offline
Avatar

Pridružen: 04 ožu 2015 14:28
Postovi: 522
Lokacija: ZG
slika

Svemirska.Avantura.2010.HRSink.DVDRip.x264-RAKiJA
1.4Gb

Kod:
https://mega.nz/#!T1FDhZxZ!kuM7psM_Vrb0VXXs43zmuarvIJPGkkGmxbcIPf5hmVI
https://mega.nz/#!74sUlTxZ!e97Rc7GFiKw6ZaeeHEO41KeF8UaRNoc69dZP5dzfq0E

_________________
"The camera is an instrument that teaches people how to see without a camera" - Dorothea Lang
slika


Povratak na vrh
  
 
 [ 139 post(ov)a ]  Stranica Prethodna  1 ... 6, 7, 8, 9, 10, 11, 12 ... 14  Sljedeća

Vremenska zona: UTC + 01:00 [LJV]


Online

Trenutno korisnika: crawl i 0 gostiju.


Ne možeš započinjati nove teme.
Ne možeš odgovarati na postove.
Ne možeš uređivati svoje postove.
Ne možeš izbrisati svoje postove.
Ne možeš postati privitke.

Idi na:  
Powered by phpBB © 2000, 2002, 2005, 2007 phpBB Group
HR (CRO) by vaper club