Vaper club

e-cigarete forum
Zadnji put si ovdje bio: 18 srp 2018 20:04. Sada je: 18 srp 2018 20:04.

Vremenska zona: UTC + 01:00 [LJV]




 [ 182 post(ov)a ]  Stranica Prethodna  1 ... 15, 16, 17, 18, 19
Autor Poruka
 Naslov: Re: Sinkro crtići
PostPostano: 07 srp 2018 12:50 
Offline
Avatar

Pridružen: 04 ožu 2015 14:28
Postovi: 582
Lokacija: ZG
slika

Ime datoteke : Home-Kod.kuce.2015.HRSINK.BRrip.XviD-Gede.avi
Veličina datoteke : 700 Mb.

[Film]
Ispravan : Da [AVI]
Trajanje : 01:33:48
Potpun film : Da

[Video]
Rezolucija : 720x384
Kodek : XviD MPEG-4 codec
FPS : 23,98
Bitrate : 915 Kbps
Faktor kvalitete : 0,14 b/px

[Audio]
Kodek : ATSC/A-52 Dolby AC3
Broj kanala : 2
Sample rate : 48000 Hz
Bitrate : 128 Kbps


Kod:
https://mega.nz/#!dQ5WyA5K!l78BbdFljf7w5GekZnlPC4CkOyjHahIXg7lr8Ertij8

_________________
"The camera is an instrument that teaches people how to see without a camera" - Dorothea Lang
slika


Povratak na vrh
  
 
 Naslov: Re: Sinkro crtići
PostPostano: 08 srp 2018 20:16 
Offline
Avatar

Pridružen: 04 ožu 2015 14:28
Postovi: 582
Lokacija: ZG
slika

General
Complete name : Maya.The.Bee.The.Honey.Games.2018.720p.BluRay.x264-ROVERS.mkv
Format : Matroska
File size : 2.65 GiB
Duration : 1 h 24 min
Overall bit rate : 4 468 kb/s

Video
Format : AVC
Bit rate : 2 955 kb/s
Width : 1 280 pixels
Height : 696 pixels
Frame rate : 23.976 FPS
Stream size : 1.75 GiB (66%)

Audio
Format : DTS
Bit rate : 1 510 kb/s
Channel(s) : 6 channels
Stream size : 916 MiB (34%)

Kod:
https://mega.nz/#!oIIyVC5D!AUBv6d1n3h8SvJmW3QG57odTRWc1xMpHrGTVkdLqtNY

_________________
"The camera is an instrument that teaches people how to see without a camera" - Dorothea Lang
slika


Povratak na vrh
  
 
 [ 182 post(ov)a ]  Stranica Prethodna  1 ... 15, 16, 17, 18, 19

Vremenska zona: UTC + 01:00 [LJV]


Online

Trenutno korisnika: crawl i 0 gostiju.


Ne možeš započinjati nove teme.
Ne možeš odgovarati na postove.
Ne možeš uređivati svoje postove.
Ne možeš izbrisati svoje postove.
Ne možeš postati privitke.

Idi na:  
Powered by phpBB © 2000, 2002, 2005, 2007 phpBB Group
HR (CRO) by vaper club