Vaper club

e-cigarete forum
Zadnji put si ovdje bio: 25 ruj 2017 08:21. Sada je: 25 ruj 2017 08:21.

Vremenska zona: UTC + 01:00 [LJV]




 [ 123 post(ov)a ]  Stranica Prethodna  1 ... 9, 10, 11, 12, 13
Autor Poruka
 Naslov: Re: Sinkro crtići
PostPostano: 04 kol 2017 07:28 
Online
Avatar

Pridružen: 04 ožu 2015 14:28
Postovi: 510
Lokacija: ZG
Video: RARBG
Audio: DVD - CrazyDjango


slika

General
Complete name : Smurfs.The.Lost.Village.2017.1080p.BluRay.H264.AAC.MP3.HR.SR.SI.ENG-MpiX.mkv
Format : Matroska
Format version : Version 4 / Version 2
File size : 2.19 GiB
Duration : 1h 29mn
Overall bit rate : 3 494 Kbps
Encoded date : UTC 2017-08-03 22:23:43

Video
ID : 1
Format : AVC
Format/Info : Advanced Video Codec
Format profile : High@L4.1
Format settings, CABAC : Yes
Format settings, ReFrames : 4 frames
Codec ID : V_MPEG4/ISO/AVC
Duration : 1h 29mn
Bit rate : 2 500 Kbps
Width : 1 920 pixels
Height : 1 040 pixels
Display aspect ratio : 1.85:1
Frame rate mode : Constant
Frame rate : 23.976 (23976/1000) fps

Audio #1
ID : 2
Format : MPEG Audio
Format version : Version 1
Format profile : Layer 3
Mode : Joint stereo
Codec ID : A_MPEG/L3
Codec ID/Hint : MP3
Duration : 1h 29mn
Bit rate mode : Constant
Bit rate : 256 Kbps
Channel(s) : 2 channels
Sampling rate : 44.1 KHz
Frame rate : 38.281 fps (1152 spf)
Compression mode : Lossy
Stream size : 164 MiB (7%)
Language : Croatian
Default : Yes
Forced : No

Audio #2
ID : 3
Format : MPEG Audio
Format version : Version 1
Format profile : Layer 3
Mode : Joint stereo
Codec ID : A_MPEG/L3
Codec ID/Hint : MP3
Duration : 1h 29mn
Bit rate mode : Constant
Bit rate : 256 Kbps
Channel(s) : 2 channels
Sampling rate : 44.1 KHz
Frame rate : 38.281 fps (1152 spf)
Compression mode : Lossy
Stream size : 164 MiB (7%)
Language : Serbian
Default : No
Forced : No

Audio #3
ID : 4
Format : MPEG Audio
Format version : Version 1
Format profile : Layer 3
Mode : Joint stereo
Codec ID : A_MPEG/L3
Codec ID/Hint : MP3
Duration : 1h 29mn
Bit rate mode : Constant
Bit rate : 256 Kbps
Channel(s) : 2 channels
Sampling rate : 44.1 KHz
Frame rate : 38.281 fps (1152 spf)
Compression mode : Lossy
Stream size : 164 MiB (7%)
Language : Slovenian
Default : No
Forced : No

Audio #4
ID : 5
Format : AAC
Format/Info : Advanced Audio Codec
Format profile : LC
Codec ID : A_AAC
Duration : 1h 29mn
Bit rate : 224 Kbps
Channel(s) : 6 channels
Channel positions : Front: L C R, Side: L R, LFE
Sampling rate : 48.0 KHz
Frame rate : 46.875 fps (1024 spf)
Compression mode : Lossy
Stream size : 144 MiB (6%)
Language : English
Default : No
Forced : No




Kod:
https://mega.nz/#!4uQzmbrK!94pWwKuiEz6tvMemR12ebhPTnB5sdB9fxOj81qnFdxI

_________________
"The camera is an instrument that teaches people how to see without a camera" - Dorothea Lang
slika


Povratak na vrh
  
 
 Naslov: Re: Sinkro crtići
PostPostano: 19 ruj 2017 17:58 
Online
Avatar

Pridružen: 04 ožu 2015 14:28
Postovi: 510
Lokacija: ZG
slika

Rock.Dog.2016.720p.BluRay.x264-GECKOS

Kod:
https://mega.nz/#!FnAzmSLL!7t760gzXS6wwMPz6Naf9vxfYk0-34GInKhvBKNDpsuE

_________________
"The camera is an instrument that teaches people how to see without a camera" - Dorothea Lang
slika


Povratak na vrh
  
 
 Naslov: Re: Sinkro crtići
PostPostano: 20 ruj 2017 10:35 
Offline
Administrator
Avatar

Pridružen: 02 ožu 2011 14:18
Postovi: 10814
Lokacija: Samobor
Dva moja najdraza crtica. Prvi je:





... a za drugi trebam pomoc znalaca. Radi se o populaciji bica koja su zivjela negdje otprilike izmedju prstiju jednog ˝diva˝. Ako bi se ˝div˝ pocohao izmedju prstiju svi bi oni bili unisteni. Da bi to sprijecili morali su viknuti svi u glas. Tek kad je najmanji dreknuo YOOOOO div ih je cuo i bili su spaseni.

_________________
slikaslika
Ako su neki zivoti savrsena kruznica, drugi uzimaju oblik koji ne mozemo predvidjeti ni shvatiti. Gubitak je bio dio moga putovanja. No i pokazao mi je sto vrijedi.
Kao i ljubav na kojoj mogu jedino biti zahvalan.


Povratak na vrh
  
 
 [ 123 post(ov)a ]  Stranica Prethodna  1 ... 9, 10, 11, 12, 13

Vremenska zona: UTC + 01:00 [LJV]


Online

Trenutno korisnika: crawl i 0 gostiju.


Ne možeš započinjati nove teme.
Ne možeš odgovarati na postove.
Ne možeš uređivati svoje postove.
Ne možeš izbrisati svoje postove.
Ne možeš postati privitke.

Idi na:  
Powered by phpBB © 2000, 2002, 2005, 2007 phpBB Group
HR (CRO) by vaper club