Vaper club

e-cigarete forum
Zadnji put si ovdje bio: 28 lip 2017 07:18. Sada je: 28 lip 2017 07:18.

Vremenska zona: UTC + 01:00 [LJV]




 [ 113 post(ov)a ]  Stranica Prethodna  1 ... 8, 9, 10, 11, 12
Autor Poruka
 Naslov: Re: Sinkro crtići
PostPostano: 09 lip 2017 13:45 
Offline
Avatar

Pridružen: 04 ožu 2015 14:28
Postovi: 499
Lokacija: ZG
Bratz - Babyz The Movie.mp4
Bratz - Camping - Kampiranje.mp4
Bratz - Camping - Kostur u ormaru.mp4
Bratz - Camping - Ne radi se o meni tjedan.mp4
Bratz - Camping - Razmjena lica.mp4
Bratz - Paris 1.mp4
Bratz - Paris 2.mp4
Bratz - Paris 3.mp4
Bratz - Wilderness - Novi klinac u gradu.mp4
Bratz - Wilderness - Opstanak.mp4
Bratz - Wilderness - Pepeljuga.mp4
Bratz - Wilderness - Uhvati lopova.mp4

2.74Gb
Kod:
https://mega.nz/#!tfRlwYxQ!pLNkfsY85H_Y0T-2u6EjtV1OyKN28eAfGb3VGlBASIg

_________________
"The camera is an instrument that teaches people how to see without a camera" - Dorothea Lang
slika


Povratak na vrh
  
 
 Naslov: Re: Sinkro crtići
PostPostano: 15 lip 2017 13:01 
Offline

Pridružen: 24 stu 2015 12:38
Postovi: 5
Lokacija: Zabreg
Ma svaka čast mpix!!!

Hvala ti ko bratu.

Usrećuješ male i velike (ljude naravno:)))

:brav:


Povratak na vrh
  
 
 Naslov: Re: Sinkro crtići
PostPostano: 21 lip 2017 13:37 
Offline
Avatar

Pridružen: 04 ožu 2015 14:28
Postovi: 499
Lokacija: ZG
slika

Complete name : Blinky Bill-Neustrasiva Koala.2015.Hrsink.720p.BRRip.x264-lujo.mp4
Format : MPEG-4
Format profile : Base Media
Codec ID : isom
File size : 978 MiB
Duration : 1h 31mn
Overall bit rate mode : Variable
Overall bit rate : 1 501 Kbps
Encoded date : UTC 2016-03-27 06:14:53


Video
ID : 1
Format : AVC
Format/Info : Advanced Video Codec
Format profile : Main@L4.1
Format settings, CABAC : Yes
Format settings, ReFrames : 5 frames
Codec ID : avc1
Codec ID/Info : Advanced Video Coding
Duration : 1h 31mn
Bit rate : 1 341 Kbps
Maximum bit rate : 5 515 Kbps
Width : 1 280 pixels
Height : 720 pixels
Display aspect ratio : 16:9
Frame rate mode : Constant
Frame rate : 23.976 fps
Color space : YUV
Chroma subsampling : 4:2:0
Bit depth : 8 bits
Scan type : Progressive
Bits/(Pixel*Frame) : 0.061
Stream size : 873 MiB (89%)
Writing library : x264 core 148 r2638 7599210

Audio
ID : 2
Format : AAC
Format/Info : Advanced Audio Codec
Format profile : LC
Codec ID : 40
Duration : 1h 31mn
Bit rate mode : Variable
Bit rate : 157 Kbps
Maximum bit rate : 201 Kbps
Channel(s) : 2 channels
Channel positions : Front: L R
Sampling rate : 48.0 KHz
Compression mode : Lossy
Stream size : 102 MiB (10%)
Slični torrenti
Name

Kod:
https://mega.nz/#!sXJ0DK4a!AaiM1EshXQ_jWvDdW46eS92fVxX537baWpgBIHGdWdc

_________________
"The camera is an instrument that teaches people how to see without a camera" - Dorothea Lang
slika


Povratak na vrh
  
 
 [ 113 post(ov)a ]  Stranica Prethodna  1 ... 8, 9, 10, 11, 12

Vremenska zona: UTC + 01:00 [LJV]


Online

Trenutno korisnika: crawl i 0 gostiju.


Ne možeš započinjati nove teme.
Ne možeš odgovarati na postove.
Ne možeš uređivati svoje postove.
Ne možeš izbrisati svoje postove.
Ne možeš postati privitke.

Idi na:  
Powered by phpBB © 2000, 2002, 2005, 2007 phpBB Group
HR (CRO) by vaper club