Vaper club

e-cigarete forum
Zadnji put si ovdje bio: 19 kol 2017 20:33. Sada je: 19 kol 2017 20:33.

Vremenska zona: UTC + 01:00 [LJV]




 [ 121 post(ov)a ]  Stranica Prethodna  1 ... 9, 10, 11, 12, 13  Sljedeća
Autor Poruka
 Naslov: Re: Sinkro crtići
PostPostano: 09 lip 2017 13:45 
Offline
Avatar

Pridružen: 04 ožu 2015 14:28
Postovi: 508
Lokacija: ZG
Bratz - Babyz The Movie.mp4
Bratz - Camping - Kampiranje.mp4
Bratz - Camping - Kostur u ormaru.mp4
Bratz - Camping - Ne radi se o meni tjedan.mp4
Bratz - Camping - Razmjena lica.mp4
Bratz - Paris 1.mp4
Bratz - Paris 2.mp4
Bratz - Paris 3.mp4
Bratz - Wilderness - Novi klinac u gradu.mp4
Bratz - Wilderness - Opstanak.mp4
Bratz - Wilderness - Pepeljuga.mp4
Bratz - Wilderness - Uhvati lopova.mp4

2.74Gb
Kod:
https://mega.nz/#!tfRlwYxQ!pLNkfsY85H_Y0T-2u6EjtV1OyKN28eAfGb3VGlBASIg

_________________
"The camera is an instrument that teaches people how to see without a camera" - Dorothea Lang
slika


Povratak na vrh
  
 
 Naslov: Re: Sinkro crtići
PostPostano: 15 lip 2017 13:01 
Offline

Pridružen: 24 stu 2015 12:38
Postovi: 6
Lokacija: Zabreg
Ma svaka čast mpix!!!

Hvala ti ko bratu.

Usrećuješ male i velike (ljude naravno:)))

:brav:


Povratak na vrh
  
 
 Naslov: Re: Sinkro crtići
PostPostano: 21 lip 2017 13:37 
Offline
Avatar

Pridružen: 04 ožu 2015 14:28
Postovi: 508
Lokacija: ZG
slika

Complete name : Blinky Bill-Neustrasiva Koala.2015.Hrsink.720p.BRRip.x264-lujo.mp4
Format : MPEG-4
Format profile : Base Media
Codec ID : isom
File size : 978 MiB
Duration : 1h 31mn
Overall bit rate mode : Variable
Overall bit rate : 1 501 Kbps
Encoded date : UTC 2016-03-27 06:14:53


Video
ID : 1
Format : AVC
Format/Info : Advanced Video Codec
Format profile : Main@L4.1
Format settings, CABAC : Yes
Format settings, ReFrames : 5 frames
Codec ID : avc1
Codec ID/Info : Advanced Video Coding
Duration : 1h 31mn
Bit rate : 1 341 Kbps
Maximum bit rate : 5 515 Kbps
Width : 1 280 pixels
Height : 720 pixels
Display aspect ratio : 16:9
Frame rate mode : Constant
Frame rate : 23.976 fps
Color space : YUV
Chroma subsampling : 4:2:0
Bit depth : 8 bits
Scan type : Progressive
Bits/(Pixel*Frame) : 0.061
Stream size : 873 MiB (89%)
Writing library : x264 core 148 r2638 7599210

Audio
ID : 2
Format : AAC
Format/Info : Advanced Audio Codec
Format profile : LC
Codec ID : 40
Duration : 1h 31mn
Bit rate mode : Variable
Bit rate : 157 Kbps
Maximum bit rate : 201 Kbps
Channel(s) : 2 channels
Channel positions : Front: L R
Sampling rate : 48.0 KHz
Compression mode : Lossy
Stream size : 102 MiB (10%)
Slični torrenti
Name

Kod:
https://mega.nz/#!sXJ0DK4a!AaiM1EshXQ_jWvDdW46eS92fVxX537baWpgBIHGdWdc

_________________
"The camera is an instrument that teaches people how to see without a camera" - Dorothea Lang
slika


Povratak na vrh
  
 
 Naslov: Re: Sinkro crtići
PostPostano: 30 lip 2017 14:08 
Offline
Avatar

Pridružen: 04 ožu 2015 14:28
Postovi: 508
Lokacija: ZG
slika

2Gb

Carolija.usnulog.Zmaja.2016.HRSINK.720p.DVDRip.little eagle

Kod:
https://mega.nz/#!hXASnCAT!BW39dlwpPrBwiCLKkd41kpj-oH0r9cmMlKW72XkKEP0

_________________
"The camera is an instrument that teaches people how to see without a camera" - Dorothea Lang
slika


Povratak na vrh
  
 
 Naslov: Re: Sinkro crtići
PostPostano: 30 lip 2017 17:02 
Offline
Avatar

Pridružen: 04 ožu 2015 14:28
Postovi: 508
Lokacija: ZG
slika

The.Snow.Queen.3.2016.720p.WEB-DL.x264-Gede

2,5Gb

Kod:
https://mega.nz/#!tCQDSJ5D!SmjbzV1xdcF9VI1w7d3mHqRW2jvqct3--7Ie3kRZKWU

_________________
"The camera is an instrument that teaches people how to see without a camera" - Dorothea Lang
slika


Povratak na vrh
  
 
 Naslov: Re: Sinkro crtići
PostPostano: 10 srp 2017 19:41 
Offline

Pridružen: 24 stu 2015 12:38
Postovi: 6
Lokacija: Zabreg
Poštovani mpix,

Imam jedno bedasto pitanje..

Kada želim spojiti hrvatski audio uzet iz dvdrip izdanja s 1080p videom nikako ne mogu dobiti pravi sync.

Ima li neka razlika između npr. audio zapisa iz blu ray ripova i dvd ripova, uzimajući u obzir da su oba AC3 5.1

Konkretan primjer, imam Khumbu dvdrip s hr audiom, pa sam skinuo 1080p na koju bi nalijepio taj hr audio iz dvdripa.


Povratak na vrh
  
 
 Naslov: Re: Sinkro crtići
PostPostano: 11 srp 2017 14:38 
Offline
Avatar

Pridružen: 04 ožu 2015 14:28
Postovi: 508
Lokacija: ZG
Ja to radim u Adobe Premiere Pro.
Tam to jedino možeš napraviti kak spada.

Problem je u frame rate. 1080p je najčešće BR rip koji je 23.9 FPS dok je DVD 25 FPS.

_________________
"The camera is an instrument that teaches people how to see without a camera" - Dorothea Lang
slika


Povratak na vrh
  
 
 Naslov: Re: Sinkro crtići
PostPostano: 14 srp 2017 20:59 
Offline
Avatar

Pridružen: 04 ožu 2015 14:28
Postovi: 508
Lokacija: ZG
slika

General
Complete name : The.Last.Unicorn.1982.720p.BluRay.x264-Gede.mkv
Format : Matroska
File size : 3.27 GiB
Duration : 1 h 33 min
Overall bit rate : 5 035 kb/s

Video
Format : AVC
Bit rate : 3 524 kb/s
Width : 1 280 pixels
Height : 692 pixels
Frame rate : 23.976 (24000/1001) FPS
Stream size : 2.29 GiB (70%)

Audio
Format : DTS
Bit rate : 1 509 kb/s
Channel(s) : 6 channels
Stream size : 1 004 MiB (30%)

Kod:
https://mega.nz/#!4PoyXRrA!QlDI3fz88OO-C7ldQtRNJR2FC5fLhTxMBSFbZCf5JeY




slika


General
Complete name : The.Iron.Giant.1999.720p.BluRay.x264-Gede.mkv
Format : Matroska
File size : 2.64 GiB
Duration : 1 h 26 min
Overall bit rate : 4 365 kb/s

Video
Format : AVC
Bit rate : 3 726 kb/s
Width : 1 280 pixels
Height : 534 pixels
Frame rate : 23.976 (24000/1001) FPS
Stream size : 2.25 GiB (85%)

Audio
Format : AC-3
Bit rate : 640 kb/s
Channel(s) : 6 channels
Stream size : 396 MiB (15%)


Kod:
https://mega.nz/#!MexBlCTY!wD0wOlduae3ShLgO7JGAnU9jhvkUHWwcE7dJF4wJZqA

_________________
"The camera is an instrument that teaches people how to see without a camera" - Dorothea Lang
slika


Povratak na vrh
  
 
 Naslov: Re: Sinkro crtići
PostPostano: 15 srp 2017 18:56 
Offline
Avatar

Pridružen: 04 ožu 2015 14:28
Postovi: 508
Lokacija: ZG
slika


Sedmogodišnji dječak Tim ljubomoran je na svog novog mlađeg brata, kojeg njegovi roditelji obožavaju. Međutim, Tim uskoro otkriva veliku tajnu svoga brata te će se morati udružiti zajedno s njim, kako bi svaki od njih ostvario svoj cilj. Mali šef je urnebesna priča o utjecaju dolaska nove bebe u obitelj, ispričana iz perspektive maštovitog sedmogodišnjaka. Ova originalna komedija o važnosti obitelji privući će sve generacije.

SINKRONIZIRANO NA HRVATSKI!


The.Boss.Baby.2017.HRSiNK.720p.BluRay.DD5.1.x264-FaKE.mkv

General:
Format...............: Matroska
File Size............: 2616,07 MiB
Duration.............: 1 h 37 min
Bitrate..............: 3 751 kb/s

Video:
Format...............: AVC
Codec................: x264 - core 150 r2833 df79067
Bitrate..............: 3 301 kb/s
Frame Rate...........: 23.976 FPS
Scan Type............: Progressive
Bits/(Pixel*Frame)...: 0.198
Resolution...........: 1280x544
Stream Size..........: 2.25 GiB (88%)
Aspect Ratio.........: 2.35:1

Audio #1:
Format...............: AC-3
Bitrate..............: 448 kb/s
Channels.............: 6 channels
Sampling Rate........: 48.0 kHz
Resolution...........: 16 bits
Stream Size..........: 312 MiB (12%)
Language.............: Croatian

Kod:
https://mega.nz/#!4KwkhS7A!lXj3yZQZ-qJhJbHUAp0zbwmHlM0SxVG7k0-WPCDiTgM

_________________
"The camera is an instrument that teaches people how to see without a camera" - Dorothea Lang
slika


Povratak na vrh
  
 
 Naslov: Re: Sinkro crtići
PostPostano: 25 srp 2017 19:37 
Offline
Avatar

Pridružen: 04 ožu 2015 14:28
Postovi: 508
Lokacija: ZG
slika

Pet.legendi.2012.HRSink.BluRay.x264-Sk0rp.mkv

Format version : Version 4 / Version 2
File size : 2.05 GiB
Duration : 1h 37mn
Overall bit rate : 3 019 Kbps

Video
ID : 1
Format : AVC
Duration : 1h 37mn
Bit rate : 2 571 Kbps
Width : 1 280 pixels
Height : 720 pixels
Display aspect ratio : 16:9

Audio
ID : 2
Format : AC-3
Format/Info : Audio Coding 3
Mode extension : CM (complete main)
Format settings, Endianness : Big
Codec ID : A_AC3
Duration : 1h 37mn
Bit rate mode : Constant
Bit rate : 448 Kbps
Channel(s) : 6 channels
Channel positions : Front: L C R, Side: L R, LFE
Sampling rate : 48.0 KHz
Language : Croatian

Kod:
https://mega.nz/#!JLQimKhI!ppP3LyReMtZWEIoTac0PGJrWlXf03pP5UF4qiNcLmxo


Rise.Of.The.Guardians.2012.HRSink.BRRip.XviD-RAKiJA.avi


Format : AVI
Format/Info : Audio Video Interleave
File size : 697 MiB
Duration : 1h 33mn
Overall bit rate mode : Variable
Overall bit rate : 1 045 Kbps

Video
Format : MPEG-4 Visual
Codec ID : XVID
Codec ID/Hint : XviD
Duration : 1h 33mn
Bit rate : 926 Kbps
Width : 624 pixels
Height : 352 pixels

Audio
ID : 1
Format : MPEG Audio
Format version : Version 1
Format profile : Layer 3
Mode : Joint stereo

Kod:
https://mega.nz/#!xLwTRACA!WBpoZhSBJNvzSAmBVYTK2t79fEAhHiIXeakXi4enmHk

_________________
"The camera is an instrument that teaches people how to see without a camera" - Dorothea Lang
slika


Povratak na vrh
  
 
 [ 121 post(ov)a ]  Stranica Prethodna  1 ... 9, 10, 11, 12, 13  Sljedeća

Vremenska zona: UTC + 01:00 [LJV]


Online

Trenutno korisnika: crawl, damba i 0 gostiju.


Ne možeš započinjati nove teme.
Ne možeš odgovarati na postove.
Ne možeš uređivati svoje postove.
Ne možeš izbrisati svoje postove.
Ne možeš postati privitke.

Idi na:  
Powered by phpBB © 2000, 2002, 2005, 2007 phpBB Group
HR (CRO) by vaper club